Fear And Loathing In Las Vegas Criterion REPACK 1998 720p Bluray

    Share

    Formanite

    Posts : 15
    Points : 45
    Reputation : 0
    Join date : 2011-11-07

    Fear And Loathing In Las Vegas Criterion REPACK 1998 720p Bluray

    Post  Formanite on Sat Dec 10, 2011 5:58 pm

    Fear And Loathing In Las Vegas Criterion REPACK 1998 720p Bluray DTS x264-SONiQ

    It is 1971, and journalist Raoul Duke barrels toward Las Vegas?accompanied by a
    trunkful of contraband and his slightly unhinged Samoan attorney, Dr. Gonzo?to
    cover a motorcycle race. What should be a cut-and-dried journalistic assignment
    quickly descends into a feverish psychedelic odyssey. Director Terry Gilliam and
    an all-star cast headlined by Johnny Depp and Benicio Del Toro show no mercy
    in bringing Hunter S. Thompson?s excoriating dissection of the American way of life
    to the screen, creating a film both hilarious and savage.
    INFO:
    Code:
    General
    Complete name                            : Fear.And.Loathing.In.Las.Vegas.Criterion.REPACK.1998.720p.Bluray.DTS.x264-SONiQ.mkv
    Format                                  : Matroska
    Format version                          : Version 2
    File size                                : 8.91 GiB
    Duration                                : 1h 58mn
    Overall bit rate                        : 10.8 Mbps
    Encoded date                            : UTC 2011-11-25 06:09:50
    Writing application                      : mkvmerge v3.4.0 ('Rapunzel') built on May 16 2010 03:27:36
    Writing library                          : libebml v0.8.0 + libmatroska v0.9.0

    Video
    ID                                      : 1
    Format                                  : AVC
    Format/Info                              : Advanced Video Codec
    Format profile                          : High@L4.1
    Format settings, CABAC                  : Yes
    Format settings, ReFrames                : 9 frames
    Codec ID                                : V_MPEG4/ISO/AVC
    Duration                                : 1h 58mn
    Bit rate                                : 6 982 Kbps
    Width                                    : 1 280 pixels
    Height                                  : 544 pixels
    Display aspect ratio                    : 2.35:1
    Frame rate                              : 23.976 fps
    Color space                              : YUV
    Chroma subsampling                      : 4:2:0
    Bit depth                                : 8 bits
    Scan type                                : Progressive
    Bits/(Pixel*Frame)                      : 0.418
    Stream size                              : 5.77 GiB (65%)
    Writing library                          : x264 core 119

    Language                                : English
    Default                                  : Yes
    Forced                                  : No
    Color primaries                          : BT.709-5, BT.1361, IEC 61966-2-4, SMPTE RP177
    Transfer characteristics                : BT.709-5, BT.1361
    Matrix coefficients                      : BT.709-5, BT.1361, IEC 61966-2-4 709, SMPTE RP177

    Audio #1
    ID                                      : 2
    Format                                  : DTS
    Format/Info                              : Digital Theater Systems
    Codec ID                                : A_DTS
    Duration                                : 1h 58mn
    Bit rate mode                            : Constant
    Bit rate                                : 1 510 Kbps
    Channel(s)                              : 6 channels
    Channel positions                        : Front: L C R, Side: L R, LFE
    Sampling rate                            : 48.0 KHz
    Bit depth                                : 24 bits
    Compression mode                        : Lossy
    Delay relative to video                  : 10ms
    Stream size                              : 1.25 GiB (14%)
    Language                                : English
    Default                                  : Yes
    Forced                                  : No

    Audio #2
    ID                                      : 3
    Format                                  : DTS
    Format/Info                              : Digital Theater Systems
    Codec ID                                : A_DTS
    Duration                                : 1h 58mn
    Bit rate mode                            : Constant
    Bit rate                                : 1 510 Kbps
    Channel(s)                              : 2 channels
    Channel positions                        : Front: L R
    Sampling rate                            : 48.0 KHz
    Bit depth                                : 24 bits
    Compression mode                        : Lossy
    Delay relative to video                  : 10ms
    Stream size                              : 1.25 GiB (14%)
    Language                                : English
    Default                                  : No
    Forced                                  : No

    Audio #3
    ID                                      : 4
    Format                                  : AC-3
    Format/Info                              : Audio Coding 3
    Mode extension                          : CM (complete main)
    Codec ID                                : A_AC3
    Duration                                : 1h 58mn
    Bit rate mode                            : Constant
    Bit rate                                : 192 Kbps
    Channel(s)                              : 2 channels
    Channel positions                        : Front: L R
    Sampling rate                            : 48.0 KHz
    Bit depth                                : 16 bits
    Compression mode                        : Lossy
    Stream size                              : 162 MiB (2%)
    Title                                    : Commentary by Terry Gilliam
    Language                                : English
    Default                                  : No
    Forced                                  : No

    Audio #4
    ID                                      : 5
    Format                                  : AC-3
    Format/Info                              : Audio Coding 3
    Mode extension                          : CM (complete main)
    Codec ID                                : A_AC3
    Duration                                : 1h 58mn
    Bit rate mode                            : Constant
    Bit rate                                : 192 Kbps
    Channel(s)                              : 2 channels
    Channel positions                        : Front: L R
    Sampling rate                            : 48.0 KHz
    Bit depth                                : 16 bits
    Compression mode                        : Lossy
    Stream size                              : 162 MiB (2%)
    Title                                    : Commentary by Johnny Depp, Benicio Del Toro and Producer Laila Nabulsi
    Language                                : English
    Default                                  : No
    Forced                                  : No

    Audio #5
    ID                                      : 6
    Format                                  : AC-3
    Format/Info                              : Audio Coding 3
    Mode extension                          : CM (complete main)
    Codec ID                                : A_AC3
    Duration                                : 1h 58mn
    Bit rate mode                            : Constant
    Bit rate                                : 192 Kbps
    Channel(s)                              : 2 channels
    Channel positions                        : Front: L R
    Sampling rate                            : 48.0 KHz
    Bit depth                                : 16 bits
    Compression mode                        : Lossy
    Stream size                              : 162 MiB (2%)
    Title                                    : Commentary by Hunter S. Thompson
    Language                                : English
    Default                                  : No
    Forced                                  : No

    Text
    ID                                      : 7
    Format                                  : VobSub
    Muxing mode                              : zlib
    Codec ID                                : S_VOBSUB
    Codec ID/Info                            : The same subtitle format used on DVDs
    Language                                : English
    Default                                  : No
    Forced                                  : No

    Menu
    00:00:00.000                            : en:Chapter  1
    00:06:06.783                            : en:Chapter  2
    00:14:34.206                            : en:Chapter  3
    00:22:52.162                            : en:Chapter  4
    00:27:34.903                            : en:Chapter  5
    00:31:33.892                            : en:Chapter  6
    00:39:07.636                            : en:Chapter  7
    00:44:51.438                            : en:Chapter  8
    00:46:05.721                            : en:Chapter  9
    00:52:36.236                            : en:Chapter 10
    00:57:14.764                            : en:Chapter 11
    01:01:35.817                            : en:Chapter 12
    01:08:23.599                            : en:Chapter 13
    01:12:42.858                            : en:Chapter 14
    01:19:49.785                            : en:Chapter 15
    01:23:57.949                            : en:Chapter 16
    01:29:00.418                            : en:Chapter 17
    01:33:17.842                            : en:Chapter 18
    01:38:15.097                            : en:Chapter 19
    01:41:24.369                            : en:Chapter 20
    01:47:16.138                            : en:Chapter 21
    01:50:30.373                            : en:Chapter 22
    01:58:12.293                            : en:Chapter 23


    Filesonic
    Code:

    http://www.filesonic.com/file/4142246934/FRLTHNGLSVGS.by1GBLink.part07.rar
    http://www.filesonic.com/file/4142254874/FRLTHNGLSVGS.by1GBLink.part02.rar
    http://www.filesonic.com/file/4142251574/FRLTHNGLSVGS.by1GBLink.part04.rar
    http://www.filesonic.com/file/4142274164/FRLTHNGLSVGS.by1GBLink.part03.rar
    http://www.filesonic.com/file/4142274224/FRLTHNGLSVGS.by1GBLink.part09.rar
    http://www.filesonic.com/file/4142217154/FRLTHNGLSVGS.by1GBLink.part10.rar
    http://www.filesonic.com/file/4142246874/FRLTHNGLSVGS.by1GBLink.part06.rar
    http://www.filesonic.com/file/4142251744/FRLTHNGLSVGS.by1GBLink.part01.rar
    http://www.filesonic.com/file/4142252004/FRLTHNGLSVGS.by1GBLink.part05.rar
    http://www.filesonic.com/file/4142246894/FRLTHNGLSVGS.by1GBLink.part08.rar
    Fileserve
    Code:

    http://www.fileserve.com/file/9UF3CPJ/FRLTHNGLSVGS.by1GBLink.part01.rar
    http://www.fileserve.com/file/dbM8YJV/FRLTHNGLSVGS.by1GBLink.part02.rar
    http://www.fileserve.com/file/32Q9wKc/FRLTHNGLSVGS.by1GBLink.part03.rar
    http://www.fileserve.com/file/zgKnXRg/FRLTHNGLSVGS.by1GBLink.part04.rar
    http://www.fileserve.com/file/8auZpQv/FRLTHNGLSVGS.by1GBLink.part05.rar
    http://www.fileserve.com/file/UsDuQkQ/FRLTHNGLSVGS.by1GBLink.part06.rar
    http://www.fileserve.com/file/4NzKCxH/FRLTHNGLSVGS.by1GBLink.part07.rar
    http://www.fileserve.com/file/vKpRpPP/FRLTHNGLSVGS.by1GBLink.part08.rar
    http://www.fileserve.com/file/4PTxm3a/FRLTHNGLSVGS.by1GBLink.part09.rar
    http://www.fileserve.com/file/v6pxH6G/FRLTHNGLSVGS.by1GBLink.part10.rar

      Current date/time is Thu Dec 08, 2016 2:01 am